Cs.Tiesto*The*Best*Comunity
Top 66 Voteaza
TiestoComunity doar pt baieti care stiu sa joace Top66 Statistici
Top postatori
CsTiesto (336)
 
alexdinkm5 (80)
 
aRLy (30)
 
SeNzaTioNaL (9)
 
SOS (9)
 
RedMan (6)
 
TeeRoRAnGeL (5)
 
KenT.z0r (5)
 
StarScream (3)
 
sRs (3)
 

Septembrie 2018
LunMarMierJoiVinSamDum
     12
3456789
10111213141516
17181920212223
24252627282930

Calendar Calendar

Bookmarking social

Bookmarking social digg  


Flux RSS


Yahoo! 
MSN 
AOL 
Netvibes 
Bloglines 


Cine este conectat?
In total este 1 utilizator conectat: 0 Inregistrati, 0 Invizibil si 1 Vizitator

Nici unul

[ Vizualizeaza toata lista ]


Recordul de utilizatori conectati a fost de 7, Lun Dec 14, 2009 2:06 pm
Radio*Kiss*FM
.
The Time Is:

[RS \ NL]The Boat That Rocked 2009 720p.BluRay.x264-iNFAMOUS

In jos

[RS NL]The Boat That Rocked 2009 720p.BluRay.x264-iNFAMOUS

Mesaj Scris de CsTiesto la data de Lun Dec 14, 2009 5:17 pm

[RS \ NL]The Boat That Rocked 2009 720p.BluRay.x264-iNFAMOUS Cod:
General Complete name : inf-tbtr.mkv Format : Matroska File size : 6.56 GiB Duration : 2h 15mn Overall bit rate : 6 949 Kbps Encoded date : UTC 2009-08-12 14:27:16 Writing application : mkvmerge v2.9.5 ('Tu es le seul') built on Jun 7 2009 11:07:07 Writing library : libebml v0.7.7 + libmatroska v0.8.1 Video ID : 1 Format : AVC Format/Info : Advanced Video Codec Format profile : High@L4.1 Format settings, CABAC : Yes Format settings, ReFrames : 5 frames Muxing mode : Container profile=Unknown@4.1 Codec ID : V_MPEG4/ISO/AVC Duration : 2h 15mn Bit rate : 5 301 Kbps Nominal bit rate : 5 438 Kbps Width : 1 280 pixels Height : 544 pixels Display aspect ratio : 2.35 Frame rate : 23.976 fps Resolution : 24 bits Colorimetry : 4:2:0 Scan type : Progressive Bits/(Pixel*Frame) : 0.318 Stream size : 5.00 GiB (76%) Writing library : x264 core 67 r1169M ab85c9b Encoding settings : cabac=1 / ref=5 / deblock=1:0:0 / analyse=0x3:0x133 / me=umh / subme=7 / psy_rd=1.0:0.0 / mixed_ref=1 / me_range=16 / chroma_me=1 / trellis=1 / 8x8dct=1 / cqm=0 / deadzone=21,11 / chroma_qp_offset=-2 / threads=6 / nr=0 / decimate=1 / mbaff=0 / bframes=3 / b_pyramid=1 / b_adapt=1 / b_bias=0 / direct=1 / wpredb=1 / keyint=250 / keyint_min=25 / scenecut=40 / rc=2pass / bitrate=5438 / ratetol=1.0 / qcomp=0.60 / qpmin=10 / qpmax=51 / qpstep=4 / cplxblur=20.0 / qblur=0.5 / ip_ratio=1.40 / pb_ratio=1.30 / aq=1:1.00 Language : English Audio ID : 2 Format : DTS Format/Info : Digital Theater Systems Codec ID : A_DTS Duration : 2h 15mn Bit rate mode : Constant Bit rate : 1 510 Kbps Channel(s) : 6 channels Channel positions : Front: L C R, Surround: L R, LFE Sampling rate : 48.0 KHz Resolution : 24 bits Stream size : 1.43 GiB (22%) Text ID : 3 Format : UTF-8 Codec ID : S_TEXT/UTF8 Codec ID/Info : UTF-8 Plain Text
Cod:
rapidshare.com inf-tbtr.part01.rar.htm rapidshare.com inf-tbtr.part02.rar.htm Cod:
avatar
CsTiesto
Admin
Admin

Mesaje : 336
Reputatie : 3
Data de inscriere : 10/12/2009
Varsta : 29
Localizare : Constanta

Vezi profilul utilizatorului http://comunity.forumulmeu.ro

Sus In jos

Sus

- Subiecte similare

 
Permisiunile acestui forum:
Nu puteti raspunde la subiectele acestui forum